  0
SECTION
  2
HEADER
  9
$ACADVER
  1
AC1009
  9
$INSBASE
 10
0.000000
 20
0.000000
  9
$EXTMIN
 10
0.000000
 20
0.000000
  9
$EXTMAX
 10
297.000000
 20
210.000000
  9
$LIMMIN
 10
0.000000
 20
0.000000
  9
$LIMMAX
 10
297.000000
 20
210.000000
  9
$VIEWCTR
 10
148.500000
 20
105.000000
  9
$VIEWSIZE
 40
210.000000
  9
$PEXTMIN
 10
0.000000
 20
0.000000
 30
0.000000
  9
$PEXTMAX
 10
297.000000
 20
210.000000
 30
0.000000
  9
$SNAPMODE
 70
     0
  9
$SNAPUNIT
 10
1.000000
 20
1.000000
  9
$SNAPBASE
 10
0.000000
 20
0.000000
  9
$SNAPANG
 50
0.000000
  9
$SNAPISOPAIR
 70
     0
  9
$SNAPSTYLE
 70
     0
  9
$GRIDMODE
 70
     0
  9
$GRIDUNIT
 10
0.000000
 20
0.000000
  9
$ORTHOMODE
 70
     0
  9
$REGENMODE
 70
     1
  9
$FILLMODE
 70
     1
  9
$QTEXTMODE
 70
     0
  9
$DRAGMODE
 70
     2
  9
$LTSCALE
 40
0.250000
  9
$OSMODE
 70
     0
  9
$ATTMODE
 70
     1
  9
$TEXTSIZE
 40
5.000000
  9
$TRACEWID
 40
0.050000
  9
$TEXTSTYLE
  7
STANDARD
  9
$CLAYER
  8
0
  9
$CELTYPE
  6
BYLAYER
  9
$CECOLOR
 62
   256
  9
$DIMSCALE
 40
1.000000
  9
$DIMASZ
 40
1.000000
  9
$DIMEXO
 40
0.000000
  9
$DIMDLI
 40
0.500000
  9
$DIMRND
 40
0.000000
  9
$DIMDLE
 40
0.000000
  9
$DIMEXE
 40
0.000000
  9
$DIMTP
 40
0.000000
  9
$DIMTM
 40
0.000000
  9
$DIMTXT
 40
4.000000
  9
$DIMCEN
 40
0.000000
  9
$DIMTSZ
 40
0.000000
  9
$DIMTOL
 70
     0
  9
$DIMLIM
 70
     0
  9
$DIMTIH
 70
     1
  9
$DIMTOH
 70
     1
  9
$DIMSE1
 70
     0
  9
$DIMSE2
 70
     0
  9
$DIMTAD
 70
     0
  9
$DIMZIN
 70
     0
  9
$DIMBLK
  1

  9
$DIMASO
 70
     0
  9
$DIMSHO
 70
     0
  9
$DIMPOST
  1

  9
$DIMAPOST
  1

  9
$DIMALT
 70
     0
  9
$DIMALTD
 70
     0
  9
$DIMALTF
 40
25.400000
  9
$DIMLFAC
 40
1.000000
  9
$DIMTOFL
 70
     0
  9
$DIMTVP
 40
0.000000
  9
$DIMTIX
 70
     0
  9
$DIMSOXD
 70
     0
  9
$DIMSAH
 70
     0
  9
$DIMBLKL
  1

  9
$DIMBLKR
  1

  9
$LUNITS
 70
     2
  9
$LUPREC
 70
     2
  9
$AXISMODE
 70
     0
  9
$AXISUNIT
 10
1.000000
 20
1.000000
  9
$SKETCHINC
 40
0.000000
  9
$FILLETRAD
 40
0.000000
  9
$AUNITS
 70
     1
  9
$AUPREC
 70
     2
  9
$MENU
  1
ACAD
  9
$ELEVATION
 40
0.000000
  9
$THICKNESS
 40
0.000000
  9
$VIEWDIR
 10
0.000000
 20
0.000000
 30
1.000000
  9
$LIMCHECK
 70
     1
  9
$BLIPMODE
 70
     1
  9
$CHAMFERA
 40
0.000000
  9
$CHAMFERB
 40
0.000000
  9
$FASTZOOM
 70
     1
  9
$SKPOLY
 70
     0
  9
$TDCREATE
 40
0.000000
  9
$TDUPDATE
 40
0.000000
  9
$TDINDWG
 40
0.000000
  9
$TDUSRTIMER
 40
0.000000
  9
$USRTIMER
 70
     1
  9
$ANGBASE
 50
0.000000
  9
$ANGDIR
 70
     0
  9
$PDMODE
 70
     0
  9
$PDSIZE
 40
0.000000
  9
$PLINEWID
 40
0.000000
  9
$COORDS
 70
     2
  9
$USERI1
 70
     0
  9
$USERI2
 70
     0
  9
$USERI3
 70
     0
  9
$USERI4
 70
     0
  9
$USERI5
 70
     0
  9
$USERR1
 40
0.000000
  9
$USERR2
 40
0.000000
  9
$USERR3
 40
0.000000
  9
$USERR4
 40
0.000000
  9
$USERR5
 40
0.000000
  0
ENDSEC
  0
SECTION
  2
TABLES
  0
TABLE
  2
LTYPE
 70
     5
  0
LTYPE
  2
CONTINUOUS
 70
    64
  3
Solid line
 72
    65
 73
     0
 40
0.0
  0
LTYPE
  2
HIDDEN
 70
    64
  3
------------------------
 72
    65
 73
     2
 40
12.6
 49
8.4
 49
-4.2
  0
LTYPE
  2
DOT
 70
    64
  3
････････････････････････
 72
    65
 73
     2
 40
8.0
 49
6.0
 49
-2.0
  0
LTYPE
  2
DASHDOT
 70
    64
  3
--･--･--･--･--･--･--･--
 72
    65
 73
     4
 40
50.5
 49
30.0
 49
-9.0
 49
2.5
 49
-9.0
  0
LTYPE
  2
DIVIDE
 70
    64
  3
--･･--･･--･･--･･--･･--
 72
    65
 73
     6
 40
58.0
 49
30.0
 49
-9.0
 49
2.5
 49
-5.0
 49
2.5
 49
-9.0
  0
LTYPE
  2
ACAD_ISO06W100
 70
    64
  3
____ ... ____ ... ____
 72
    65
 73
     8
 40
37.5
 49
24.0
 49
-3.0
 49
0.5
 49
-3.0
 49
0.5
 49
-3.0
 49
0.5
 49
-3.0
  0
LTYPE
  2
ACAD_ISO14W100
 70
    64
  3
__ . . . __ . . . __ . . . 
 72
    65
 73
     8
 40
25.5
 49
12.0
 49
-3.0
 49
0.5
 49
-3.0
 49
0.5
 49
-3.0
 49
0.5
 49
-3.0
  0
ENDTAB
  0
TABLE
  2
LAYER
 70
2
  0
LAYER
  2
1
 70
64
 62
7
  6
CONTINUOUS
  0
LAYER
  2
2
 70
64
 62
134
  6
CONTINUOUS
  0
ENDTAB
  0
TABLE
  2
STYLE
 70
     2
  0
STYLE
  2
STANDARD
 70
    64
 40
0.0
 41
1.0
 50
0.0
 71
     0
 42
0.2
  3
TXT
  4

  0
STYLE
  2
KANJI
 70
    64
 40
0.0
 41
1.0
 50
0.0
 71
     0
 42
0.2
  3
TXT
  4
BIGFONT
  0
ENDTAB
  0
TABLE
  2
VIEW
 70
     0
  0
ENDTAB
  0
ENDSEC
  0
SECTION
  2
BLOCKS
  0
BLOCK
  8
2
 62
134
  6
CONTINUOUS
  2
*D1
 70
    65
 10
0.0
 20
0.0
  0
LINE
  8
2
 62
134
  6
CONTINUOUS
 10
222.366695
 20
44.269406
 11
38.585949
 21
44.269406
  0
LINE
  8
2
 62
134
  6
CONTINUOUS
 10
222.366695
 20
42.269406
 11
222.366695
 21
120.725197
  0
LINE
  8
2
 62
134
  6
CONTINUOUS
 10
38.585949
 20
42.269406
 11
38.585949
 21
118.950166
  0
LINE
  8
2
 62
134
  6
CONTINUOUS
 10
222.366695
 20
44.269406
 11
218.502992
 21
43.234130
  0
LINE
  8
2
 62
134
  6
CONTINUOUS
 10
222.366695
 20
44.269406
 11
218.502992
 21
45.304683
  0
LINE
  8
2
 62
134
  6
CONTINUOUS
 10
218.502992
 20
43.234130
 11
218.502992
 21
45.304683
  0
LINE
  8
2
 62
134
  6
CONTINUOUS
 10
221.400769
 20
44.269406
 11
219.468918
 21
43.751768
  0
LINE
  8
2
 62
134
  6
CONTINUOUS
 10
221.400769
 20
44.269406
 11
219.468918
 21
44.787044
  0
LINE
  8
2
 62
134
  6
CONTINUOUS
 10
219.468918
 20
43.751768
 11
219.468918
 21
44.787044
  0
LINE
  8
2
 62
134
  6
CONTINUOUS
 10
38.585949
 20
44.269406
 11
42.449652
 21
45.304683
  0
LINE
  8
2
 62
134
  6
CONTINUOUS
 10
38.585949
 20
44.269406
 11
42.449652
 21
43.234130
  0
LINE
  8
2
 62
134
  6
CONTINUOUS
 10
42.449652
 20
45.304683
 11
42.449652
 21
43.234130
  0
LINE
  8
2
 62
134
  6
CONTINUOUS
 10
39.551874
 20
44.269406
 11
41.483726
 21
44.787044
  0
LINE
  8
2
 62
134
  6
CONTINUOUS
 10
39.551874
 20
44.269406
 11
41.483726
 21
43.751768
  0
LINE
  8
2
 62
134
  6
CONTINUOUS
 10
41.483726
 20
44.787044
 11
41.483726
 21
43.751768
  0
TEXT
  8
2
 62
134
  6
CONTINUOUS
 10
124.476322
 20
44.269406
 40
4.000000
 41
0.500000
  1
183.78
  7
KANJI
 50
0.000000
 51
30.000000
  0
ENDBLK
  0
BLOCK
  8
2
 62
134
  6
CONTINUOUS
  2
*D2
 70
    65
 10
0.0
 20
0.0
  0
LINE
  8
2
 62
134
  6
CONTINUOUS
 10
279.171856
 20
51.950166
 11
279.171856
 21
189.950167
  0
LINE
  8
2
 62
134
  6
CONTINUOUS
 10
281.171856
 20
51.950166
 11
124.316695
 21
51.950166
  0
LINE
  8
2
 62
134
  6
CONTINUOUS
 10
281.171856
 20
189.950167
 11
124.316695
 21
189.950167
  0
LINE
  8
2
 62
134
  6
CONTINUOUS
 10
279.171856
 20
51.950166
 11
278.136579
 21
55.813869
  0
LINE
  8
2
 62
134
  6
CONTINUOUS
 10
279.171856
 20
51.950166
 11
280.207132
 21
55.813869
  0
LINE
  8
2
 62
134
  6
CONTINUOUS
 10
278.136579
 20
55.813869
 11
280.207132
 21
55.813869
  0
LINE
  8
2
 62
134
  6
CONTINUOUS
 10
279.171856
 20
52.916092
 11
278.654217
 21
54.847944
  0
LINE
  8
2
 62
134
  6
CONTINUOUS
 10
279.171856
 20
52.916092
 11
279.689494
 21
54.847944
  0
LINE
  8
2
 62
134
  6
CONTINUOUS
 10
278.654217
 20
54.847944
 11
279.689494
 21
54.847944
  0
LINE
  8
2
 62
134
  6
CONTINUOUS
 10
279.171856
 20
189.950167
 11
280.207132
 21
186.086463
  0
LINE
  8
2
 62
134
  6
CONTINUOUS
 10
279.171856
 20
189.950167
 11
278.136579
 21
186.086463
  0
LINE
  8
2
 62
134
  6
CONTINUOUS
 10
280.207132
 20
186.086463
 11
278.136579
 21
186.086463
  0
LINE
  8
2
 62
134
  6
CONTINUOUS
 10
279.171856
 20
188.984241
 11
279.689494
 21
187.052389
  0
LINE
  8
2
 62
134
  6
CONTINUOUS
 10
279.171856
 20
188.984241
 11
278.654217
 21
187.052389
  0
LINE
  8
2
 62
134
  6
CONTINUOUS
 10
279.689494
 20
187.052389
 11
278.654217
 21
187.052389
  0
TEXT
  8
2
 62
134
  6
CONTINUOUS
 10
279.171856
 20
117.950166
 40
4.000000
 41
0.500000
  1
138
  7
KANJI
 50
90.000000
 51
30.000000
  0
ENDBLK
  0
BLOCK
  8
2
 62
134
  6
CONTINUOUS
  2
*D3
 70
    65
 10
0.0
 20
0.0
  0
LINE
  8
2
 62
134
  6
CONTINUOUS
 10
268.449564
 20
182.950167
 11
268.449564
 21
58.950166
  0
LINE
  8
2
 62
134
  6
CONTINUOUS
 10
270.449564
 20
182.950167
 11
125.916695
 21
182.950167
  0
LINE
  8
2
 62
134
  6
CONTINUOUS
 10
270.449564
 20
58.950166
 11
125.916695
 21
58.950166
  0
LINE
  8
2
 62
134
  6
CONTINUOUS
 10
268.449564
 20
182.950167
 11
269.484840
 21
179.086463
  0
LINE
  8
2
 62
134
  6
CONTINUOUS
 10
268.449564
 20
182.950167
 11
267.414288
 21
179.086463
  0
LINE
  8
2
 62
134
  6
CONTINUOUS
 10
269.484840
 20
179.086463
 11
267.414288
 21
179.086463
  0
LINE
  8
2
 62
134
  6
CONTINUOUS
 10
268.449564
 20
181.984241
 11
268.967202
 21
180.052389
  0
LINE
  8
2
 62
134
  6
CONTINUOUS
 10
268.449564
 20
181.984241
 11
267.931926
 21
180.052389
  0
LINE
  8
2
 62
134
  6
CONTINUOUS
 10
268.967202
 20
180.052389
 11
267.931926
 21
180.052389
  0
LINE
  8
2
 62
134
  6
CONTINUOUS
 10
268.449564
 20
58.950166
 11
267.414288
 21
62.813869
  0
LINE
  8
2
 62
134
  6
CONTINUOUS
 10
268.449564
 20
58.950166
 11
269.484840
 21
62.813869
  0
LINE
  8
2
 62
134
  6
CONTINUOUS
 10
267.414288
 20
62.813869
 11
269.484840
 21
62.813869
  0
LINE
  8
2
 62
134
  6
CONTINUOUS
 10
268.449564
 20
59.916092
 11
267.931926
 21
61.847944
  0
LINE
  8
2
 62
134
  6
CONTINUOUS
 10
268.449564
 20
59.916092
 11
268.967202
 21
61.847944
  0
LINE
  8
2
 62
134
  6
CONTINUOUS
 10
267.931926
 20
61.847944
 11
268.967202
 21
61.847944
  0
TEXT
  8
2
 62
134
  6
CONTINUOUS
 10
268.449564
 20
117.950166
 40
4.000000
 41
0.500000
  1
124
  7
KANJI
 50
90.000000
 51
30.000000
  0
ENDBLK
  0
BLOCK
  8
2
 62
134
  6
CONTINUOUS
  2
*D4
 70
    65
 10
0.0
 20
0.0
  0
LINE
  8
2
 62
134
  6
CONTINUOUS
 10
255.896638
 20
71.950166
 11
255.896638
 21
169.950166
  0
LINE
  8
2
 62
134
  6
CONTINUOUS
 10
257.896638
 20
71.950166
 11
154.596513
 21
71.950166
  0
LINE
  8
2
 62
134
  6
CONTINUOUS
 10
257.896638
 20
169.950166
 11
155.642590
 21
169.950166
  0
LINE
  8
2
 62
134
  6
CONTINUOUS
 10
255.896638
 20
71.950166
 11
254.861361
 21
75.813869
  0
LINE
  8
2
 62
134
  6
CONTINUOUS
 10
255.896638
 20
71.950166
 11
256.931914
 21
75.813869
  0
LINE
  8
2
 62
134
  6
CONTINUOUS
 10
254.861361
 20
75.813869
 11
256.931914
 21
75.813869
  0
LINE
  8
2
 62
134
  6
CONTINUOUS
 10
255.896638
 20
72.916092
 11
255.379000
 21
74.847944
  0
LINE
  8
2
 62
134
  6
CONTINUOUS
 10
255.896638
 20
72.916092
 11
256.414276
 21
74.847944
  0
LINE
  8
2
 62
134
  6
CONTINUOUS
 10
255.379000
 20
74.847944
 11
256.414276
 21
74.847944
  0
LINE
  8
2
 62
134
  6
CONTINUOUS
 10
255.896638
 20
169.950166
 11
256.931914
 21
166.086463
  0
LINE
  8
2
 62
134
  6
CONTINUOUS
 10
255.896638
 20
169.950166
 11
254.861361
 21
166.086463
  0
LINE
  8
2
 62
134
  6
CONTINUOUS
 10
256.931914
 20
166.086463
 11
254.861361
 21
166.086463
  0
LINE
  8
2
 62
134
  6
CONTINUOUS
 10
255.896638
 20
168.984240
 11
256.414276
 21
167.052389
  0
LINE
  8
2
 62
134
  6
CONTINUOUS
 10
255.896638
 20
168.984240
 11
255.379000
 21
167.052389
  0
LINE
  8
2
 62
134
  6
CONTINUOUS
 10
256.414276
 20
167.052389
 11
255.379000
 21
167.052389
  0
TEXT
  8
2
 62
134
  6
CONTINUOUS
 10
255.896638
 20
118.950166
 40
4.000000
 41
0.500000
  1
98
  7
KANJI
 50
90.000000
 51
30.000000
  0
ENDBLK
  0
BLOCK
  8
2
 62
134
  6
CONTINUOUS
  2
*D5
 70
    65
 10
0.0
 20
0.0
  0
LINE
  8
2
 62
134
  6
CONTINUOUS
 10
16.606476
 20
153.950166
 11
16.606476
 21
87.950166
  0
LINE
  8
2
 62
134
  6
CONTINUOUS
 10
14.606476
 20
153.950166
 11
95.938979
 21
153.950166
  0
LINE
  8
2
 62
134
  6
CONTINUOUS
 10
14.606476
 20
87.950166
 11
96.200498
 21
87.950166
  0
LINE
  8
2
 62
134
  6
CONTINUOUS
 10
16.606476
 20
153.950166
 11
17.641752
 21
150.086463
  0
LINE
  8
2
 62
134
  6
CONTINUOUS
 10
16.606476
 20
153.950166
 11
15.571200
 21
150.086463
  0
LINE
  8
2
 62
134
  6
CONTINUOUS
 10
17.641752
 20
150.086463
 11
15.571200
 21
150.086463
  0
LINE
  8
2
 62
134
  6
CONTINUOUS
 10
16.606476
 20
152.984240
 11
17.124114
 21
151.052389
  0
LINE
  8
2
 62
134
  6
CONTINUOUS
 10
16.606476
 20
152.984240
 11
16.088838
 21
151.052389
  0
LINE
  8
2
 62
134
  6
CONTINUOUS
 10
17.124114
 20
151.052389
 11
16.088838
 21
151.052389
  0
LINE
  8
2
 62
134
  6
CONTINUOUS
 10
16.606476
 20
87.950166
 11
15.571200
 21
91.813869
  0
LINE
  8
2
 62
134
  6
CONTINUOUS
 10
16.606476
 20
87.950166
 11
17.641752
 21
91.813869
  0
LINE
  8
2
 62
134
  6
CONTINUOUS
 10
15.571200
 20
91.813869
 11
17.641752
 21
91.813869
  0
LINE
  8
2
 62
134
  6
CONTINUOUS
 10
16.606476
 20
88.916092
 11
16.088838
 21
90.847944
  0
LINE
  8
2
 62
134
  6
CONTINUOUS
 10
16.606476
 20
88.916092
 11
17.124114
 21
90.847944
  0
LINE
  8
2
 62
134
  6
CONTINUOUS
 10
16.088838
 20
90.847944
 11
17.124114
 21
90.847944
  0
TEXT
  8
2
 62
134
  6
CONTINUOUS
 10
16.606476
 20
118.950166
 40
4.000000
 41
0.500000
  1
66
  7
KANJI
 50
90.000000
 51
30.000000
  0
ENDBLK
  0
BLOCK
  8
2
 62
134
  6
CONTINUOUS
  2
*D6
 70
    65
 10
0.0
 20
0.0
  0
LINE
  8
2
 62
134
  6
CONTINUOUS
 10
27.328767
 20
133.550166
 11
27.328767
 21
108.350166
  0
LINE
  8
2
 62
134
  6
CONTINUOUS
 10
25.328767
 20
133.550166
 11
73.666695
 21
133.550166
  0
LINE
  8
2
 62
134
  6
CONTINUOUS
 10
25.328767
 20
108.350166
 11
73.666695
 21
108.350166
  0
LINE
  8
2
 62
134
  6
CONTINUOUS
 10
27.328767
 20
133.550166
 11
28.364043
 21
129.686463
  0
LINE
  8
2
 62
134
  6
CONTINUOUS
 10
27.328767
 20
133.550166
 11
26.293491
 21
129.686463
  0
LINE
  8
2
 62
134
  6
CONTINUOUS
 10
28.364043
 20
129.686463
 11
26.293491
 21
129.686463
  0
LINE
  8
2
 62
134
  6
CONTINUOUS
 10
27.328767
 20
132.584240
 11
27.846405
 21
130.652389
  0
LINE
  8
2
 62
134
  6
CONTINUOUS
 10
27.328767
 20
132.584240
 11
26.811129
 21
130.652389
  0
LINE
  8
2
 62
134
  6
CONTINUOUS
 10
27.846405
 20
130.652389
 11
26.811129
 21
130.652389
  0
LINE
  8
2
 62
134
  6
CONTINUOUS
 10
27.328767
 20
108.350166
 11
26.293491
 21
112.213869
  0
LINE
  8
2
 62
134
  6
CONTINUOUS
 10
27.328767
 20
108.350166
 11
28.364043
 21
112.213869
  0
LINE
  8
2
 62
134
  6
CONTINUOUS
 10
26.293491
 20
112.213869
 11
28.364043
 21
112.213869
  0
LINE
  8
2
 62
134
  6
CONTINUOUS
 10
27.328767
 20
109.316092
 11
26.811129
 21
111.247944
  0
LINE
  8
2
 62
134
  6
CONTINUOUS
 10
27.328767
 20
109.316092
 11
27.846405
 21
111.247944
  0
LINE
  8
2
 62
134
  6
CONTINUOUS
 10
26.811129
 20
111.247944
 11
27.846405
 21
111.247944
  0
TEXT
  8
2
 62
134
  6
CONTINUOUS
 10
27.328767
 20
116.950166
 40
4.000000
 41
0.500000
  1
25.2
  7
KANJI
 50
90.000000
 51
30.000000
  0
ENDBLK
  0
BLOCK
  8
2
 62
134
  6
CONTINUOUS
  2
*D7
 70
    65
 10
0.0
 20
0.0
  0
LINE
  8
2
 62
134
  6
CONTINUOUS
 10
242.036115
 20
163.950166
 11
242.036115
 21
77.950166
  0
LINE
  8
2
 62
134
  6
CONTINUOUS
 10
244.036115
 20
163.950166
 11
195.966695
 21
163.950166
  0
LINE
  8
2
 62
134
  6
CONTINUOUS
 10
244.036115
 20
77.950166
 11
195.966695
 21
77.950166
  0
LINE
  8
2
 62
134
  6
CONTINUOUS
 10
242.036115
 20
163.950166
 11
243.071391
 21
160.086463
  0
LINE
  8
2
 62
134
  6
CONTINUOUS
 10
242.036115
 20
163.950166
 11
241.000838
 21
160.086463
  0
LINE
  8
2
 62
134
  6
CONTINUOUS
 10
243.071391
 20
160.086463
 11
241.000838
 21
160.086463
  0
LINE
  8
2
 62
134
  6
CONTINUOUS
 10
242.036115
 20
162.984240
 11
242.553753
 21
161.052389
  0
LINE
  8
2
 62
134
  6
CONTINUOUS
 10
242.036115
 20
162.984240
 11
241.518476
 21
161.052389
  0
LINE
  8
2
 62
134
  6
CONTINUOUS
 10
242.553753
 20
161.052389
 11
241.518476
 21
161.052389
  0
LINE
  8
2
 62
134
  6
CONTINUOUS
 10
242.036115
 20
77.950166
 11
241.000838
 21
81.813869
  0
LINE
  8
2
 62
134
  6
CONTINUOUS
 10
242.036115
 20
77.950166
 11
243.071391
 21
81.813869
  0
LINE
  8
2
 62
134
  6
CONTINUOUS
 10
241.000838
 20
81.813869
 11
243.071391
 21
81.813869
  0
LINE
  8
2
 62
134
  6
CONTINUOUS
 10
242.036115
 20
78.916092
 11
241.518476
 21
80.847944
  0
LINE
  8
2
 62
134
  6
CONTINUOUS
 10
242.036115
 20
78.916092
 11
242.553753
 21
80.847944
  0
LINE
  8
2
 62
134
  6
CONTINUOUS
 10
241.518476
 20
80.847944
 11
242.553753
 21
80.847944
  0
TEXT
  8
2
 62
134
  6
CONTINUOUS
 10
242.036115
 20
118.950166
 40
4.000000
 41
0.500000
  1
86
  7
KANJI
 50
90.000000
 51
30.000000
  0
ENDBLK
  0
BLOCK
  8
2
 62
134
  6
CONTINUOUS
  2
*D8
 70
    65
 10
0.0
 20
0.0
  0
LINE
  8
2
 62
134
  6
CONTINUOUS
 10
229.483188
 20
150.950166
 11
229.483188
 21
90.950166
  0
LINE
  8
2
 62
134
  6
CONTINUOUS
 10
231.483188
 20
150.950166
 11
201.723644
 21
150.950166
  0
LINE
  8
2
 62
134
  6
CONTINUOUS
 10
231.483188
 20
90.950166
 11
201.723644
 21
90.950166
  0
LINE
  8
2
 62
134
  6
CONTINUOUS
 10
229.483188
 20
150.950166
 11
230.518464
 21
147.086463
  0
LINE
  8
2
 62
134
  6
CONTINUOUS
 10
229.483188
 20
150.950166
 11
228.447912
 21
147.086463
  0
LINE
  8
2
 62
134
  6
CONTINUOUS
 10
230.518464
 20
147.086463
 11
228.447912
 21
147.086463
  0
LINE
  8
2
 62
134
  6
CONTINUOUS
 10
229.483188
 20
149.984240
 11
230.000826
 21
148.052389
  0
LINE
  8
2
 62
134
  6
CONTINUOUS
 10
229.483188
 20
149.984240
 11
228.965550
 21
148.052389
  0
LINE
  8
2
 62
134
  6
CONTINUOUS
 10
230.000826
 20
148.052389
 11
228.965550
 21
148.052389
  0
LINE
  8
2
 62
134
  6
CONTINUOUS
 10
229.483188
 20
90.950166
 11
228.447912
 21
94.813869
  0
LINE
  8
2
 62
134
  6
CONTINUOUS
 10
229.483188
 20
90.950166
 11
230.518464
 21
94.813869
  0
LINE
  8
2
 62
134
  6
CONTINUOUS
 10
228.447912
 20
94.813869
 11
230.518464
 21
94.813869
  0
LINE
  8
2
 62
134
  6
CONTINUOUS
 10
229.483188
 20
91.916092
 11
228.965550
 21
93.847944
  0
LINE
  8
2
 62
134
  6
CONTINUOUS
 10
229.483188
 20
91.916092
 11
230.000826
 21
93.847944
  0
LINE
  8
2
 62
134
  6
CONTINUOUS
 10
228.965550
 20
93.847944
 11
230.000826
 21
93.847944
  0
TEXT
  8
2
 62
134
  6
CONTINUOUS
 10
229.483188
 20
118.950166
 40
4.000000
 41
0.500000
  1
60
  7
KANJI
 50
90.000000
 51
30.000000
  0
ENDBLK
  0
ENDSEC
  0
SECTION
  2
ENTITIES
  0
LINE
  8
2
 62
134
  6
CONTINUOUS
 10
287.647414
 20
14.740958
 11
287.647414
 21
39.921831
  0
LINE
  8
2
 62
134
  6
CONTINUOUS
 10
287.647414
 20
39.921831
 11
151.023714
 21
39.921831
  0
LINE
  8
2
 62
134
  6
CONTINUOUS
 10
151.023714
 20
39.921831
 11
151.023714
 21
14.740958
  0
LINE
  8
2
 62
134
  6
CONTINUOUS
 10
151.023714
 20
14.740958
 11
287.647414
 21
14.740958
  0
LINE
  8
2
 62
134
  6
CONTINUOUS
 10
215.095439
 20
14.740958
 11
215.095439
 21
25.855303
  0
LINE
  8
2
 62
134
  6
CONTINUOUS
 10
215.095439
 20
25.855303
 11
287.647414
 21
25.855303
  0
LINE
  8
2
 62
134
  6
CONTINUOUS
 10
287.647414
 20
25.855303
 11
287.647414
 21
14.740958
  0
LINE
  8
2
 62
134
  6
CONTINUOUS
 10
287.647414
 20
14.740958
 11
215.095439
 21
14.740958
  0
LINE
  8
2
 62
134
  6
CONTINUOUS
 10
151.023714
 20
14.740958
 11
151.023714
 21
25.855303
  0
LINE
  8
2
 62
134
  6
CONTINUOUS
 10
151.023714
 20
25.855303
 11
215.095439
 21
25.855303
  0
LINE
  8
2
 62
134
  6
CONTINUOUS
 10
215.095439
 20
25.855303
 11
215.095439
 21
14.740958
  0
LINE
  8
2
 62
134
  6
CONTINUOUS
 10
215.095439
 20
14.740958
 11
151.023714
 21
14.740958
  0
LINE
  8
2
 62
134
  6
CONTINUOUS
 10
151.023714
 20
14.740958
 11
151.023714
 21
25.855303
  0
LINE
  8
2
 62
134
  6
CONTINUOUS
 10
151.023714
 20
25.855303
 11
168.631302
 21
25.855303
  0
LINE
  8
2
 62
134
  6
CONTINUOUS
 10
168.631302
 20
25.855303
 11
168.631302
 21
14.740958
  0
LINE
  8
2
 62
134
  6
CONTINUOUS
 10
168.631302
 20
14.740958
 11
151.023714
 21
14.740958
  0
LINE
  8
2
 62
134
  6
CONTINUOUS
 10
168.631302
 20
14.740958
 11
168.631302
 21
25.855303
  0
LINE
  8
2
 62
134
  6
CONTINUOUS
 10
168.631302
 20
25.855303
 11
186.846479
 21
25.855303
  0
LINE
  8
2
 62
134
  6
CONTINUOUS
 10
186.846479
 20
25.855303
 11
186.846479
 21
14.740958
  0
LINE
  8
2
 62
134
  6
CONTINUOUS
 10
186.846479
 20
14.740958
 11
168.631302
 21
14.740958
  0
LINE
  8
2
 62
134
  6
CONTINUOUS
 10
151.023714
 20
25.855303
 11
151.023714
 21
39.921831
  0
LINE
  8
2
 62
134
  6
CONTINUOUS
 10
151.023714
 20
39.921831
 11
231.921323
 21
39.921831
  0
LINE
  8
2
 62
134
  6
CONTINUOUS
 10
231.921323
 20
39.921831
 11
231.921323
 21
25.855303
  0
LINE
  8
2
 62
134
  6
CONTINUOUS
 10
231.921323
 20
25.855303
 11
151.023714
 21
25.855303
  0
LINE
  8
2
 62
134
  6
CONTINUOUS
 10
151.023714
 20
25.855303
 11
151.023714
 21
21.224326
  0
LINE
  8
2
 62
134
  6
CONTINUOUS
 10
151.023714
 20
21.224326
 11
215.095439
 21
21.224326
  0
LINE
  8
2
 62
134
  6
CONTINUOUS
 10
215.095439
 20
21.224326
 11
215.095439
 21
25.855303
  0
LINE
  8
2
 62
134
  6
CONTINUOUS
 10
215.095439
 20
25.855303
 11
151.023714
 21
25.855303
  0
LINE
  8
2
 62
134
  6
CONTINUOUS
 10
151.023714
 20
39.921831
 11
151.023714
 21
36.043452
  0
LINE
  8
2
 62
134
  6
CONTINUOUS
 10
151.023714
 20
36.043452
 11
231.921323
 21
36.043452
  0
LINE
  8
2
 62
134
  6
CONTINUOUS
 10
231.921323
 20
36.043452
 11
231.921323
 21
39.921831
  0
LINE
  8
2
 62
134
  6
CONTINUOUS
 10
231.921323
 20
39.921831
 11
151.023714
 21
39.921831
  0
TEXT
  8
2
 62
134
  6
CONTINUOUS
 10
153.812175
 20
21.841789
 40
4.000000
 41
1.000000
  1
尺　度
  7
KANJI
 50
0.000000
 51
0.000000
  0
TEXT
  8
2
 62
134
  6
CONTINUOUS
 10
171.409888
 20
21.533057
 40
4.000000
 41
1.000000
  1
単　位
  7
KANJI
 50
0.000000
 51
0.000000
  0
TEXT
  8
2
 62
134
  6
CONTINUOUS
 10
194.564774
 20
21.533057
 40
4.000000
 41
1.000000
  1
日　付
  7
KANJI
 50
0.000000
 51
0.000000
  0
TEXT
  8
2
 62
134
  6
CONTINUOUS
 10
179.745647
 20
36.043452
 40
4.000000
 41
1.000000
  1
部　品　名
  7
KANJI
 50
0.000000
 51
0.000000
  0
LINE
  8
2
 62
134
  6
CONTINUOUS
 10
287.647414
 20
25.855303
 11
287.647414
 21
36.043452
  0
LINE
  8
2
 62
134
  6
CONTINUOUS
 10
287.647414
 20
36.043452
 11
231.921323
 21
36.043452
  0
LINE
  8
2
 62
134
  6
CONTINUOUS
 10
231.921323
 20
36.043452
 11
231.921323
 21
25.855303
  0
LINE
  8
2
 62
134
  6
CONTINUOUS
 10
231.921323
 20
25.855303
 11
287.647414
 21
25.855303
  0
TEXT
  8
2
 62
134
  6
CONTINUOUS
 10
173.223688
 20
16.130251
 40
4.000000
 41
1.000000
  1
ｍｍ
  7
KANJI
 50
0.000000
 51
0.000000
  0
TEXT
  8
2
 62
134
  6
CONTINUOUS
 10
248.554249
 20
36.043452
 40
4.000000
 41
1.000000
  1
バージョン
  7
KANJI
 50
0.000000
 51
0.000000
  0
TEXT
  8
2
 62
134
  6
CONTINUOUS
 10
190.025793
 20
14.740958
 40
5.000000
 41
0.500000
  1
2022.12.30
  7
KANJI
 50
0.000000
 51
0.000000
  0
TEXT
  8
2
 62
134
  6
CONTINUOUS
 10
227.440116
 20
17.081148
 40
6.000000
 41
1.000000
  1
株式会社ロボテナ
  7
KANJI
 50
0.000000
 51
0.000000
  0
TEXT
  8
2
 62
134
  6
CONTINUOUS
 10
253.082664
 20
28.126147
 40
5.000000
 41
0.500000
  1
V1.0
  7
KANJI
 50
0.000000
 51
0.000000
  0
TEXT
  8
2
 62
134
  6
CONTINUOUS
 10
151.768378
 20
29.230024
 40
4.000000
 41
0.855978
  1
ライントレーサーロボットキット メインシャーシ
  7
KANJI
 50
0.000000
 51
0.000000
  0
TEXT
  8
2
 62
134
  6
CONTINUOUS
 10
155.775220
 20
15.175095
 40
5.000000
 41
0.500000
  1
1:1
  7
KANJI
 50
0.000000
 51
0.000000
  0
LINE
  8
2
 62
134
  6
CONTINUOUS
 10
287.647414
 20
14.740958
 11
287.647414
 21
194.740958
  0
LINE
  8
2
 62
134
  6
CONTINUOUS
 10
287.647414
 20
194.740958
 11
7.647414
 21
194.740958
  0
LINE
  8
2
 62
134
  6
CONTINUOUS
 10
7.647414
 20
194.740958
 11
7.647414
 21
14.740958
  0
LINE
  8
2
 62
134
  6
CONTINUOUS
 10
7.647414
 20
14.740958
 11
287.647414
 21
14.740958
  0
CIRCLE
  8
1
 62
7
  6
CONTINUOUS
 10
140.174346
 20
90.950166
 40
1.550000
  0
CIRCLE
  8
1
 62
7
  6
CONTINUOUS
 10
140.174346
 20
150.950166
 40
1.550000
  0
ARC
  8
1
 62
7
  6
CONTINUOUS
 10
151.366695
 20
112.950166
 40
2.000000
 50
0.000000
 51
90.000000
  0
ARC
  8
1
 62
7
  6
CONTINUOUS
 10
177.366695
 20
112.950166
 40
2.000000
 50
90.000000
 51
180.000000
  0
CIRCLE
  8
1
 62
7
  6
CONTINUOUS
 10
90.174346
 20
90.950166
 40
1.550000
  0
CIRCLE
  8
1
 62
7
  6
CONTINUOUS
 10
90.174346
 20
150.950166
 40
1.550000
  0
CIRCLE
  8
1
 62
7
  6
CONTINUOUS
 10
77.266695
 20
108.350166
 40
1.600000
  0
CIRCLE
  8
1
 62
7
  6
CONTINUOUS
 10
77.266695
 20
133.550166
 40
1.600000
  0
CIRCLE
  8
1
 62
7
  6
CONTINUOUS
 10
148.173644
 20
95.950166
 40
1.600000
  0
CIRCLE
  8
1
 62
7
  6
CONTINUOUS
 10
203.174346
 20
95.950166
 40
1.600000
  0
CIRCLE
  8
1
 62
7
  6
CONTINUOUS
 10
148.173644
 20
145.950166
 40
1.600000
  0
CIRCLE
  8
1
 62
7
  6
CONTINUOUS
 10
203.174346
 20
145.950166
 40
1.600000
  0
ARC
  8
1
 62
7
  6
CONTINUOUS
 10
151.366695
 20
128.950166
 40
2.000000
 50
-90.000000
 51
-0.000000
  0
ARC
  8
1
 62
7
  6
CONTINUOUS
 10
177.366695
 20
128.950166
 40
2.000000
 50
-180.000000
 51
-90.000000
  0
CIRCLE
  8
1
 62
7
  6
CONTINUOUS
 10
77.266695
 20
95.950166
 40
1.600000
  0
CIRCLE
  8
1
 62
7
  6
CONTINUOUS
 10
77.266695
 20
145.950166
 40
1.600000
  0
CIRCLE
  8
1
 62
7
  6
CONTINUOUS
 10
77.266695
 20
116.050166
 40
1.100000
  0
CIRCLE
  8
1
 62
7
  6
CONTINUOUS
 10
77.266695
 20
126.050166
 40
1.100000
  0
CIRCLE
  8
1
 62
7
  6
CONTINUOUS
 10
157.366695
 20
77.950166
 40
1.500000
  0
CIRCLE
  8
1
 62
7
  6
CONTINUOUS
 10
192.366695
 20
77.950166
 40
1.600000
  0
CIRCLE
  8
1
 62
7
  6
CONTINUOUS
 10
157.366695
 20
163.950166
 40
1.500000
  0
CIRCLE
  8
1
 62
7
  6
CONTINUOUS
 10
192.366695
 20
163.950166
 40
1.600000
  0
LINE
  8
1
 62
7
  6
CONTINUOUS
 10
146.458831
 20
71.950166
 11
196.366695
 21
71.950166
  0
ARC
  8
1
 62
7
  6
CONTINUOUS
 10
146.458831
 20
68.950166
 40
3.000000
 50
90.000000
 51
135.000000
  0
LINE
  8
1
 62
7
  6
CONTINUOUS
 10
146.458831
 20
169.950166
 11
196.366695
 21
169.950166
  0
ARC
  8
1
 62
7
  6
CONTINUOUS
 10
146.458831
 20
172.950166
 40
3.000000
 50
-135.000000
 51
-90.000000
  0
ARC
  8
1
 62
7
  6
CONTINUOUS
 10
215.366695
 20
71.950166
 40
19.000000
 50
90.000000
 51
180.000000
  0
ARC
  8
1
 62
7
  6
CONTINUOUS
 10
215.366695
 20
169.950166
 40
19.000000
 50
180.000000
 51
-90.000000
  0
LINE
  8
1
 62
7
  6
CONTINUOUS
 10
215.366695
 20
90.950166
 11
221.366695
 21
90.950166
  0
ARC
  8
1
 62
7
  6
CONTINUOUS
 10
221.366695
 20
91.950166
 40
1.000000
 50
-90.000000
 51
0.000000
  0
LINE
  8
1
 62
7
  6
CONTINUOUS
 10
215.366695
 20
150.950166
 11
221.366695
 21
150.950166
  0
LINE
  8
1
 62
7
  6
CONTINUOUS
 10
222.366695
 20
91.950166
 11
222.366695
 21
149.950166
  0
ARC
  8
1
 62
7
  6
CONTINUOUS
 10
221.366695
 20
149.950166
 40
1.000000
 50
0.000000
 51
90.000000
  0
ARC
  8
1
 62
7
  6
CONTINUOUS
 10
155.366695
 20
134.950166
 40
2.000000
 50
90.000000
 51
-180.000000
  0
LINE
  8
1
 62
7
  6
CONTINUOUS
 10
173.366695
 20
136.950166
 11
155.366695
 21
136.950166
  0
ARC
  8
1
 62
7
  6
CONTINUOUS
 10
173.366695
 20
134.950166
 40
2.000000
 50
-0.000000
 51
90.000000
  0
LINE
  8
1
 62
7
  6
CONTINUOUS
 10
175.366695
 20
128.950166
 11
175.366695
 21
134.950166
  0
LINE
  8
1
 62
7
  6
CONTINUOUS
 10
153.366695
 20
134.950166
 11
153.366695
 21
128.950166
  0
ARC
  8
1
 62
7
  6
CONTINUOUS
 10
73.666695
 20
102.050166
 40
0.600000
 50
-90.000000
 51
0.000000
  0
LINE
  8
1
 62
7
  6
CONTINUOUS
 10
74.266695
 20
102.050166
 11
74.266695
 21
111.850166
  0
ARC
  8
1
 62
7
  6
CONTINUOUS
 10
73.666695
 20
111.850166
 40
0.600000
 50
-0.000000
 51
90.000000
  0
ARC
  8
1
 62
7
  6
CONTINUOUS
 10
73.666695
 20
123.850166
 40
0.600000
 50
0.000000
 51
90.000000
  0
LINE
  8
1
 62
7
  6
CONTINUOUS
 10
74.266695
 20
118.050166
 11
74.266695
 21
123.850166
  0
ARC
  8
1
 62
7
  6
CONTINUOUS
 10
73.666695
 20
118.050166
 40
0.600000
 50
-90.000000
 51
0.000000
  0
ARC
  8
1
 62
7
  6
CONTINUOUS
 10
58.585948
 20
120.950166
 40
20.000000
 50
111.466839
 51
-111.466839
  0
LINE
  8
1
 62
7
  6
CONTINUOUS
 10
51.266695
 20
102.337575
 11
85.383869
 21
88.667571
  0
ARC
  8
1
 62
7
  6
CONTINUOUS
 10
89.103201
 20
97.950166
 40
10.000000
 50
-111.834895
 51
-90.000000
  0
LINE
  8
1
 62
7
  6
CONTINUOUS
 10
51.266695
 20
139.562757
 11
85.383869
 21
153.232761
  0
ARC
  8
1
 62
7
  6
CONTINUOUS
 10
89.103201
 20
143.950166
 40
10.000000
 50
90.000000
 51
111.834895
  0
ARC
  8
1
 62
7
  6
CONTINUOUS
 10
65.866695
 20
102.050166
 40
0.600000
 50
180.000000
 51
-90.000000
  0
LINE
  8
1
 62
7
  6
CONTINUOUS
 10
65.266695
 20
102.050166
 11
65.266695
 21
111.850166
  0
ARC
  8
1
 62
7
  6
CONTINUOUS
 10
65.866695
 20
111.850166
 40
0.600000
 50
90.000000
 51
-180.000000
  0
ARC
  8
1
 62
7
  6
CONTINUOUS
 10
65.866695
 20
118.050166
 40
0.600000
 50
180.000000
 51
-90.000000
  0
LINE
  8
1
 62
7
  6
CONTINUOUS
 10
65.266695
 20
123.850166
 11
65.266695
 21
118.050166
  0
ARC
  8
1
 62
7
  6
CONTINUOUS
 10
65.866695
 20
123.850166
 40
0.600000
 50
90.000000
 51
-180.000000
  0
LINE
  8
1
 62
7
  6
CONTINUOUS
 10
73.666695
 20
101.450166
 11
65.866695
 21
101.450166
  0
LINE
  8
1
 62
7
  6
CONTINUOUS
 10
65.866695
 20
112.450166
 11
73.666695
 21
112.450166
  0
LINE
  8
1
 62
7
  6
CONTINUOUS
 10
65.866695
 20
117.450166
 11
73.666695
 21
117.450166
  0
LINE
  8
1
 62
7
  6
CONTINUOUS
 10
73.666695
 20
124.450166
 11
65.866695
 21
124.450166
  0
ARC
  8
1
 62
7
  6
CONTINUOUS
 10
108.940537
 20
99.006515
 40
1.000000
 50
90.000000
 51
-149.036243
  0
LINE
  8
1
 62
7
  6
CONTINUOUS
 10
108.083044
 20
98.492020
 11
112.316853
 21
91.435670
  0
ARC
  8
1
 62
7
  6
CONTINUOUS
 10
113.174346
 20
91.950166
 40
1.000000
 50
-149.036243
 51
-30.963757
  0
LINE
  8
1
 62
7
  6
CONTINUOUS
 10
114.031839
 20
91.435670
 11
118.265649
 21
98.492020
  0
LINE
  8
1
 62
7
  6
CONTINUOUS
 10
117.408156
 20
100.006515
 11
108.940537
 21
100.006515
  0
ARC
  8
1
 62
7
  6
CONTINUOUS
 10
117.408156
 20
99.006515
 40
1.000000
 50
-30.963757
 51
90.000000
  0
ARC
  8
1
 62
7
  6
CONTINUOUS
 10
108.940537
 20
142.893817
 40
1.000000
 50
149.036243
 51
-90.000000
  0
LINE
  8
1
 62
7
  6
CONTINUOUS
 10
117.408156
 20
141.893817
 11
108.940537
 21
141.893817
  0
ARC
  8
1
 62
7
  6
CONTINUOUS
 10
117.408156
 20
142.893817
 40
1.000000
 50
-90.000000
 51
30.963757
  0
LINE
  8
1
 62
7
  6
CONTINUOUS
 10
114.031839
 20
150.464662
 11
118.265649
 21
143.408312
  0
LINE
  8
1
 62
7
  6
CONTINUOUS
 10
108.083044
 20
143.408312
 11
112.316853
 21
150.464662
  0
ARC
  8
1
 62
7
  6
CONTINUOUS
 10
113.174346
 20
149.950166
 40
1.000000
 50
30.963757
 51
149.036243
  0
CIRCLE
  8
1
 62
7
  6
CONTINUOUS
 10
148.173644
 20
90.950166
 40
1.550000
  0
CIRCLE
  8
1
 62
7
  6
CONTINUOUS
 10
198.173644
 20
90.950166
 40
1.550000
  0
CIRCLE
  8
1
 62
7
  6
CONTINUOUS
 10
148.173644
 20
150.950166
 40
1.550000
  0
CIRCLE
  8
1
 62
7
  6
CONTINUOUS
 10
198.173644
 20
150.950166
 40
1.550000
  0
ARC
  8
1
 62
7
  6
CONTINUOUS
 10
103.174346
 20
99.006515
 40
1.000000
 50
30.963757
 51
149.036243
  0
LINE
  8
1
 62
7
  6
CONTINUOUS
 10
104.031839
 20
99.521011
 11
108.265649
 21
92.464662
  0
ARC
  8
1
 62
7
  6
CONTINUOUS
 10
107.408156
 20
91.950166
 40
1.000000
 50
-90.000000
 51
30.963757
  0
LINE
  8
1
 62
7
  6
CONTINUOUS
 10
107.408156
 20
90.950166
 11
98.940537
 21
90.950166
  0
LINE
  8
1
 62
7
  6
CONTINUOUS
 10
98.083044
 20
92.464662
 11
102.316853
 21
99.521011
  0
ARC
  8
1
 62
7
  6
CONTINUOUS
 10
98.940537
 20
91.950166
 40
1.000000
 50
149.036243
 51
-90.000000
  0
ARC
  8
1
 62
7
  6
CONTINUOUS
 10
107.408156
 20
149.950166
 40
1.000000
 50
-30.963757
 51
90.000000
  0
LINE
  8
1
 62
7
  6
CONTINUOUS
 10
107.408156
 20
150.950166
 11
98.940537
 21
150.950166
  0
ARC
  8
1
 62
7
  6
CONTINUOUS
 10
98.940537
 20
149.950166
 40
1.000000
 50
90.000000
 51
-149.036243
  0
LINE
  8
1
 62
7
  6
CONTINUOUS
 10
104.031839
 20
142.379321
 11
108.265649
 21
149.435670
  0
LINE
  8
1
 62
7
  6
CONTINUOUS
 10
98.083044
 20
149.435670
 11
102.316853
 21
142.379321
  0
ARC
  8
1
 62
7
  6
CONTINUOUS
 10
103.174346
 20
142.893817
 40
1.000000
 50
-149.036243
 51
-30.963757
  0
ARC
  8
1
 62
7
  6
CONTINUOUS
 10
123.174346
 20
99.006515
 40
1.000000
 50
30.963757
 51
149.036243
  0
LINE
  8
1
 62
7
  6
CONTINUOUS
 10
118.083044
 20
92.464662
 11
122.316853
 21
99.521011
  0
ARC
  8
1
 62
7
  6
CONTINUOUS
 10
118.940537
 20
91.950166
 40
1.000000
 50
149.036243
 51
-90.000000
  0
LINE
  8
1
 62
7
  6
CONTINUOUS
 10
127.408156
 20
90.950166
 11
118.940537
 21
90.950166
  0
LINE
  8
1
 62
7
  6
CONTINUOUS
 10
124.031839
 20
99.521011
 11
128.265649
 21
92.464662
  0
ARC
  8
1
 62
7
  6
CONTINUOUS
 10
127.408156
 20
91.950166
 40
1.000000
 50
-90.000000
 51
30.963757
  0
ARC
  8
1
 62
7
  6
CONTINUOUS
 10
118.940537
 20
149.950166
 40
1.000000
 50
90.000000
 51
-149.036243
  0
LINE
  8
1
 62
7
  6
CONTINUOUS
 10
127.408156
 20
150.950166
 11
118.940537
 21
150.950166
  0
ARC
  8
1
 62
7
  6
CONTINUOUS
 10
127.408156
 20
149.950166
 40
1.000000
 50
-30.963757
 51
90.000000
  0
LINE
  8
1
 62
7
  6
CONTINUOUS
 10
128.265649
 20
149.435670
 11
124.031839
 21
142.379321
  0
LINE
  8
1
 62
7
  6
CONTINUOUS
 10
118.083044
 20
149.435670
 11
122.316853
 21
142.379321
  0
ARC
  8
1
 62
7
  6
CONTINUOUS
 10
123.174346
 20
142.893817
 40
1.000000
 50
-149.036243
 51
-30.963757
  0
ARC
  8
1
 62
7
  6
CONTINUOUS
 10
150.366695
 20
116.950166
 40
2.000000
 50
180.000000
 51
-90.000000
  0
LINE
  8
1
 62
7
  6
CONTINUOUS
 10
148.366695
 20
116.950166
 11
148.366695
 21
124.950166
  0
ARC
  8
1
 62
7
  6
CONTINUOUS
 10
150.366695
 20
124.950166
 40
2.000000
 50
90.000000
 51
180.000000
  0
ARC
  8
1
 62
7
  6
CONTINUOUS
 10
178.366695
 20
124.950166
 40
2.000000
 50
0.000000
 51
90.000000
  0
LINE
  8
1
 62
7
  6
CONTINUOUS
 10
180.366695
 20
124.950166
 11
180.366695
 21
116.950166
  0
ARC
  8
1
 62
7
  6
CONTINUOUS
 10
178.366695
 20
116.950166
 40
2.000000
 50
-90.000000
 51
0.000000
  0
LINE
  8
1
 62
7
  6
CONTINUOUS
 10
150.366695
 20
114.950166
 11
151.366695
 21
114.950166
  0
LINE
  8
1
 62
7
  6
CONTINUOUS
 10
150.366695
 20
126.950166
 11
151.366695
 21
126.950166
  0
LINE
  8
1
 62
7
  6
CONTINUOUS
 10
178.366695
 20
126.950166
 11
177.366695
 21
126.950166
  0
LINE
  8
1
 62
7
  6
CONTINUOUS
 10
178.366695
 20
114.950166
 11
177.366695
 21
114.950166
  0
CIRCLE
  8
1
 62
7
  6
CONTINUOUS
 10
191.366695
 20
124.950166
 40
1.550000
  0
CIRCLE
  8
1
 62
7
  6
CONTINUOUS
 10
191.366695
 20
120.950166
 40
1.550000
  0
ARC
  8
1
 62
7
  6
CONTINUOUS
 10
155.366695
 20
99.950166
 40
2.000000
 50
180.000000
 51
-90.000000
  0
LINE
  8
1
 62
7
  6
CONTINUOUS
 10
173.366695
 20
97.950166
 11
155.366695
 21
97.950166
  0
ARC
  8
1
 62
7
  6
CONTINUOUS
 10
173.366695
 20
99.950166
 40
2.000000
 50
-90.000000
 51
0.000000
  0
LINE
  8
1
 62
7
  6
CONTINUOUS
 10
153.366695
 20
99.950166
 11
153.366695
 21
112.950166
  0
LINE
  8
1
 62
7
  6
CONTINUOUS
 10
175.366695
 20
99.950166
 11
175.366695
 21
112.950166
  0
CIRCLE
  8
1
 62
7
  6
CONTINUOUS
 10
122.316695
 20
58.950166
 40
1.600000
  0
ARC
  8
1
 62
7
  6
CONTINUOUS
 10
122.316695
 20
58.950166
 40
7.000000
 50
135.000000
 51
-45.000000
  0
CIRCLE
  8
1
 62
7
  6
CONTINUOUS
 10
122.316695
 20
182.950167
 40
1.600000
  0
ARC
  8
1
 62
7
  6
CONTINUOUS
 10
122.316695
 20
182.950167
 40
7.000000
 50
45.000000
 51
-135.000000
  0
LINE
  8
1
 62
7
  6
CONTINUOUS
 10
127.266443
 20
54.000419
 11
144.337510
 21
71.071486
  0
LINE
  8
1
 62
7
  6
CONTINUOUS
 10
144.337510
 20
170.828846
 11
127.266442
 21
187.899914
  0
LINE
  8
1
 62
7
  6
CONTINUOUS
 10
126.387763
 20
168.979603
 11
117.366948
 21
178.000419
  0
ARC
  8
1
 62
7
  6
CONTINUOUS
 10
119.316695
 20
161.908536
 40
10.000000
 50
-0.000000
 51
44.999999
  0
LINE
  8
1
 62
7
  6
CONTINUOUS
 10
129.316695
 20
161.950166
 11
129.316695
 21
161.908536
  0
LINE
  8
1
 62
7
  6
CONTINUOUS
 10
121.316695
 20
153.950166
 11
89.103201
 21
153.950166
  0
ARC
  8
1
 62
7
  6
CONTINUOUS
 10
121.316695
 20
161.950166
 40
8.000000
 50
-90.000000
 51
-0.000000
  0
LINE
  8
1
 62
7
  6
CONTINUOUS
 10
121.316695
 20
87.950166
 11
89.103201
 21
87.950166
  0
ARC
  8
1
 62
7
  6
CONTINUOUS
 10
121.316695
 20
79.950166
 40
8.000000
 50
-0.000000
 51
90.000000
  0
LINE
  8
1
 62
7
  6
CONTINUOUS
 10
117.366948
 20
63.899914
 11
126.387704
 21
72.920520
  0
LINE
  8
1
 62
7
  6
CONTINUOUS
 10
129.316695
 20
79.991647
 11
129.316695
 21
79.950166
  0
ARC
  8
1
 62
7
  6
CONTINUOUS
 10
119.316695
 20
79.991647
 40
10.000000
 50
-45.000475
 51
-0.000000
  0
CIRCLE
  8
1
 62
7
  6
CONTINUOUS
 10
154.366695
 20
79.950166
 40
1.100000
  0
CIRCLE
  8
1
 62
7
  6
CONTINUOUS
 10
172.366695
 20
79.950166
 40
1.100000
  0
CIRCLE
  8
1
 62
7
  6
CONTINUOUS
 10
154.366695
 20
161.950166
 40
1.100000
  0
CIRCLE
  8
1
 62
7
  6
CONTINUOUS
 10
172.366695
 20
161.950166
 40
1.100000
  0
ARC
  8
1
 62
7
  6
CONTINUOUS
 10
73.666695
 20
130.050166
 40
0.600000
 50
-90.000000
 51
0.000000
  0
LINE
  8
1
 62
7
  6
CONTINUOUS
 10
74.266695
 20
130.050166
 11
74.266695
 21
139.850166
  0
ARC
  8
1
 62
7
  6
CONTINUOUS
 10
73.666695
 20
139.850166
 40
0.600000
 50
-0.000000
 51
90.000000
  0
ARC
  8
1
 62
7
  6
CONTINUOUS
 10
65.866695
 20
130.050166
 40
0.600000
 50
180.000000
 51
-90.000000
  0
LINE
  8
1
 62
7
  6
CONTINUOUS
 10
65.266695
 20
130.050166
 11
65.266695
 21
139.850166
  0
ARC
  8
1
 62
7
  6
CONTINUOUS
 10
65.866695
 20
139.850166
 40
0.600000
 50
90.000000
 51
-180.000000
  0
LINE
  8
1
 62
7
  6
CONTINUOUS
 10
73.666695
 20
129.450166
 11
65.866695
 21
129.450166
  0
LINE
  8
1
 62
7
  6
CONTINUOUS
 10
65.866695
 20
140.450166
 11
73.666695
 21
140.450166
  0
DIMENSION
  8
2
 62
134
  6
CONTINUOUS
  2
*D1
 10
222.366695
 20
44.269406
 11
130.476322
 21
44.269406
 70
     0
  1
183.78
 13
222.366695
 23
120.725197
 14
38.585949
 24
118.950166
 50
180.000000
  0
DIMENSION
  8
2
 62
134
  6
CONTINUOUS
  2
*D2
 10
279.171856
 20
51.950166
 11
279.171856
 21
120.950166
 70
     0
  1
138
 13
124.316695
 23
51.950166
 14
124.316695
 24
189.950167
 50
90.000000
  0
DIMENSION
  8
2
 62
134
  6
CONTINUOUS
  2
*D3
 10
268.449564
 20
182.950167
 11
268.449564
 21
120.950166
 70
     0
  1
124
 13
125.916695
 23
182.950167
 14
125.916695
 24
58.950166
 50
-90.000000
  0
DIMENSION
  8
2
 62
134
  6
CONTINUOUS
  2
*D4
 10
255.896638
 20
71.950166
 11
255.896638
 21
120.950166
 70
     0
  1
98
 13
154.596513
 23
71.950166
 14
155.642590
 24
169.950166
 50
90.000000
  0
DIMENSION
  8
2
 62
134
  6
CONTINUOUS
  2
*D5
 10
16.606476
 20
153.950166
 11
16.606476
 21
120.950166
 70
     0
  1
66
 13
95.938979
 23
153.950166
 14
96.200498
 24
87.950166
 50
-90.000000
  0
DIMENSION
  8
2
 62
134
  6
CONTINUOUS
  2
*D6
 10
27.328767
 20
133.550166
 11
27.328767
 21
120.950166
 70
     0
  1
25.2
 13
73.666695
 23
133.550166
 14
73.666695
 24
108.350166
 50
-90.000000
  0
DIMENSION
  8
2
 62
134
  6
CONTINUOUS
  2
*D7
 10
242.036115
 20
163.950166
 11
242.036115
 21
120.950166
 70
     0
  1
86
 13
195.966695
 23
163.950166
 14
195.966695
 24
77.950166
 50
-90.000000
  0
DIMENSION
  8
2
 62
134
  6
CONTINUOUS
  2
*D8
 10
229.483188
 20
150.950166
 11
229.483188
 21
120.950166
 70
     0
  1
60
 13
201.723644
 23
150.950166
 14
201.723644
 24
90.950166
 50
-90.000000
  0
ENDSEC
  0
EOF
